<?xml version="1.0" standalone="no"?>
<!DOCTYPE svg PUBLIC "-//W3C//DTD SVG 1.1//EN" "http://www.w3.org/Graphics/SVG/1.1/DTD/svg11.dtd" >
<svg xmlns="http://www.w3.org/2000/svg">
<metadata>
Created by FontForge 20120731 at Fri May 12 14:38:54 2017
 By admin
</metadata>
<defs>
<font id="iconflow" horiz-adv-x="1024" >
  <font-face 
    font-family="iconflow"
    font-weight="500"
    font-stretch="normal"
    units-per-em="1024"
    panose-1="2 0 6 3 0 0 0 0 0 0"
    ascent="896"
    descent="-128"
    x-height="792"
    bbox="0 -150.8 1337 922"
    underline-thickness="0"
    underline-position="0"
    unicode-range="U+0078-E872"
  />
<missing-glyph 
 />
    <glyph glyph-name=".notdef" 
 />
    <glyph glyph-name=".notdef" 
 />
    <glyph glyph-name=".null" horiz-adv-x="0" 
 />
    <glyph glyph-name="nonmarkingreturn" horiz-adv-x="341" 
 />
    <glyph glyph-name="x" unicode="x" horiz-adv-x="1001" 
d="M281 543q-27 -1 -53 -1h-83q-18 0 -36.5 -6t-32.5 -18.5t-23 -32t-9 -45.5v-76h912v41q0 16 -0.5 30t-0.5 18q0 13 -5 29t-17 29.5t-31.5 22.5t-49.5 9h-133v-97h-438v97zM955 310v-52q0 -23 0.5 -52t0.5 -58t-10.5 -47.5t-26 -30t-33 -16t-31.5 -4.5q-14 -1 -29.5 -0.5
t-29.5 0.5h-32l-45 128h-439l-44 -128h-29h-34q-20 0 -45 1q-25 0 -41 9.5t-25.5 23t-13.5 29.5t-4 30v167h911zM163 247q-12 0 -21 -8.5t-9 -21.5t9 -21.5t21 -8.5q13 0 22 8.5t9 21.5t-9 21.5t-22 8.5zM316 123q-8 -26 -14 -48q-5 -19 -10.5 -37t-7.5 -25t-3 -15t1 -14.5
t9.5 -10.5t21.5 -4h37h67h81h80h64h36q23 0 34 12t2 38q-5 13 -9.5 30.5t-9.5 34.5q-5 19 -11 39h-368zM336 498v228q0 11 2.5 23t10 21.5t20.5 15.5t34 6h188q31 0 51.5 -14.5t20.5 -52.5v-227h-327z" />
    <glyph glyph-name="zhizhen1" unicode="&#xe602;" 
d="M869 276q-46 1 -96 -3q-43 -3 -97.5 -10t-111.5 -22l147 -243q10 -19 11.5 -39t-4.5 -38.5t-18.5 -34t-31.5 -25.5q-18 -10 -38 -11.5t-38.5 4.5t-34 18.5t-25.5 31.5l-123 273q-50 -29 -90.5 -62t-69.5 -62q-34 -33 -60 -67l-2 816z" />
    <glyph glyph-name="msnui-close-fat" unicode="&#xe674;" 
d="M675 703l-485 -486l-112 112l486 485l111 -111v0zM563 813q23 23 55.5 23t55.5 -23t23 -55.5t-23 -55.5zM191 218q-24 -23 -56.5 -23t-55.5 23t-23 55.5t23 55.5zM562 218l-485 486l111 111l486 -485zM673 331q23 -23 23 -56t-23 -56t-55.5 -23t-56.5 23zM78 703
q-23 23 -23 55.5t23 55.5t55.5 23t55.5 -23z" />
    <glyph glyph-name="close" unicode="&#xe61a;" 
d="M908.5 -12.5q-23.5 -23.5 -57 -23.5t-56.5 24l-283 283l-283 -283q-24 -24 -57 -24t-56.5 23.5t-23.5 57t23 56.5l284 283l-284 283q-23 23 -23 56.5t23.5 57t56.5 23.5t57 -24l283 -283l283 283q23 24 56.5 24t56.5 -23.5t23 -57t-23 -56.5l-283 -283l283 -283
q23 -23 23.5 -56.5t-23 -57z" />
    <glyph glyph-name="wenjiantianjia" unicode="&#xe659;" 
d="M143 51v515h181v173h354q9 0 15.5 -7t6.5 -16v-273h99v359q0 13 -8.5 21.5t-21.5 8.5h-482l-243 -228v-638q0 -12 8.5 -21t20.5 -9h536v91h-444q-9 0 -15.5 7t-6.5 17zM980 239h-153v145h-156v-145h-154v-152h154v-151h156v151h153v152z" />
    <glyph glyph-name="tag" unicode="&#xe6f9;" horiz-adv-x="1025" 
d="M256 556q0 30 -21.5 51.5t-51.5 21.5t-51.5 -21.5t-21.5 -51.5t21.5 -51.5t51.5 -21.5t51.5 21.5t21.5 51.5zM866 227q0 -30 -21 -52l-281 -281q-22 -21 -52 -21t-51 21l-409 409q-22 22 -37 58.5t-15 66.5v238q0 29 21.5 51t51.5 22h238q30 0 66.5 -15t58.5 -37
l409 -408q21 -22 21 -52v0z" />
    <glyph glyph-name="conowredo" unicode="&#xe672;" 
d="M223.5 36.5q80.5 -80.5 188.5 -109t216 1t190 110.5q67 67 99 158q3 4 6 10t2.5 22t-13.5 29t-31 13t-31 -13q-12 -12 -18 -25t-6 -20v-7q-25 -60 -71 -105q-64 -64 -149.5 -87t-171 -0.5t-148.5 86t-85.5 148.5t0.5 170.5t87 149.5q71 71 168.5 91t185.5 -15l-34 -59
q-14 -24 -0.5 -48t41.5 -24l223 -12q31 0 44.5 23t-1.5 49l-106 214q-7 12 -20.5 20t-26.5 5q-25 -6 -37 -26l-37 -64q-114 50 -242 25.5t-220 -116.5q-81 -81 -110.5 -189.5t-1 -216.5t109 -188.5z" />
    <glyph glyph-name="conowrevoke" unicode="&#xe673;" 
d="M802 631q-92 92 -220 116.5t-242 -25.5l-37 64q-12 20 -37 26q-13 3 -26.5 -5t-20.5 -20l-106 -214q-15 -26 -1.5 -49t44.5 -23l223 12q28 0 41.5 24t-0.5 48l-34 59q88 35 185.5 15t168.5 -91q64 -64 87 -149.5t0.5 -170.5t-86 -148.5t-148.5 -86t-170.5 0.5t-149.5 87
q-46 45 -71 105q2 26 -24 52q-13 13 -31 13t-31 -13t-14 -28t3.5 -24t5.5 -9q32 -91 99 -158q81 -81 189.5 -110.5t216.5 -1t188.5 109t109 188.5t-1 216.5t-110.5 189.5z" />
    <glyph glyph-name="baocun" unicode="&#xe63d;" 
d="M797 831h-42v-378h-447v378h-241v-892h892v714l-162 178v0zM856 6h-652v379h652v-379v0zM856 6zM251 339h552v-71h-552v71v0zM251 339zM251 226h552v-72h-552v72v0zM251 226zM251 115h552v-71h-552v71v0zM251 115zM581 830h103v-303h-103v303v0zM581 830z" />
    <glyph glyph-name="refresh" unicode="&#xe607;" horiz-adv-x="1231" 
d="M1160 450h-74q-15 116 -82 210.5t-170.5 149t-222.5 54.5q-137 0 -253 -72q-25 -13 -25 -42q0 -20 14 -34t34 -14q16 0 28 9q93 57 202 57q141 0 248 -91t130 -227h-82q-7 0 -12.5 -5.5t-5.5 -12.5q0 -5 3 -10l126 -219q5 -8 16 -8q10 0 15 8v0l126 219q3 4 3 10
q0 7 -5 12.5t-13 5.5v0zM1160 450zM874 90q-19 0 -33 -13v0q-102 -77 -230 -77q-105 0 -193.5 51.5t-139.5 140t-51 192.5v10h83q7 0 12.5 5t5.5 13q0 5 -3 10l-127 219v0q-5 8 -15 8t-15 -9v0l-127 -219q-2 -4 -2 -9q0 -8 5 -13t13 -5h74v-10q0 -98 38 -186.5t102 -153
t153 -102.5t187 -38q162 0 291 98l3 3h0.5t0.5 1v0q16 14 16 36q0 19 -14 33.5t-34 14.5v0v0zM874 90z" />
    <glyph glyph-name="youxiashixin" unicode="&#xe6b7;" 
d="M97 192h263.5h289.5q34 0 44.5 14.5t10.5 41.5v275v279q0 16 -9.5 23.5t-21 5.5t-19.5 -9q-52 -52 -289.5 -287.5t-288.5 -286.5q-17 -19 -10.5 -37.5t30.5 -18.5z" />
    <glyph glyph-name="paizhaoanniu" unicode="&#xe6bd;" 
d="M512 888q-102 0 -195.5 -40t-161 -107.5t-107.5 -161t-40 -195.5t40 -195.5t107.5 -161t161 -107.5t195.5 -40t195.5 40t161 107.5t107.5 161t40 195.5t-40 195.5t-107.5 161t-161 107.5t-195.5 40zM512 -41q-115 0 -213 57t-155 155t-57 213t57 213t155 155t213 57
t213 -57t155 -155t57 -213t-57 -213t-155 -155t-213 -57zM512 778q-107 0 -197.5 -53t-143.5 -143.5t-53 -197.5t53 -197.5t143.5 -143.5t197.5 -53t197.5 53t143.5 143.5t53 197.5t-53 197.5t-143.5 143.5t-197.5 53z" />
    <glyph glyph-name="huizhang" unicode="&#xe611;" 
d="M622 864h-399q-15 0 -26.5 -11.5t-11.5 -27.5v-153q0 -16 9 -34t22 -27l173 -124q9 -7 17 -6q4 -1 7 -1h192q4 0 9 1q8 -2 19 6l173 124q13 9 22 27t9 34v153q0 16 -11 27.5t-27 11.5h-177zM569 796q0 12 8 20.5t20 8.5t20.5 -8.5t8.5 -20.5v-249q0 -12 -8.5 -20.5
t-20 -8.5t-20 8.5t-8.5 20.5v249zM396 796q0 12 8.5 20.5t20.5 8.5t20.5 -8.5t8.5 -20.5v-249q0 -12 -8.5 -20.5t-20.5 -8.5t-20.5 8.5t-8.5 20.5v249zM511 -96q111 0 190 79t79 190t-79 190t-190 79t-189.5 -79t-78.5 -190t78.5 -190t189.5 -79z" />
    <glyph glyph-name="hrgongzuotai" unicode="&#xe600;" 
d="M939 896h-853q-35 0 -60 -25t-25 -60v-682q0 -36 25 -61t60 -25h256v-85h-85v-85h511v85h-85v85h256q35 0 60 25t25 61v682q0 35 -25 60t-60 25zM598 725h255v-255h-85v85h-85v-85h-85v255zM171 725h86v-85h85v85h85v-255h-85v85h-85v-85h-86v255zM939 214h-853v85h853
v-85z" />
    <glyph glyph-name="tingzhi-copy" unicode="&#xe609;" 
d="M932 71q0 -44 -31.5 -75.5t-75.5 -31.5h-626q-44 0 -75.5 31.5t-31.5 75.5v626q0 44 31.5 75.5t75.5 31.5h626q44 0 75.5 -31.5t31.5 -75.5v-626z" />
    <glyph glyph-name="wenjianjia" unicode="&#xe7a0;" 
d="M861 -8q0 -23 -16.5 -39.5t-39.5 -16.5h-699l98 461q0 24 16.5 40t39.5 16h643q23 0 39.5 -16t16.5 -40l-98 -405v0v0zM218 495h629v55q0 23 -16.5 39.5t-39.5 16.5h-335v51q0 23 -16.5 39.5t-39.5 16.5h-280q-23 0 -39.5 -16.5t-16.5 -39.5v-665l98 447q0 23 16.5 39.5
t39.5 16.5v0v0zM218 495z" />
    <glyph glyph-name="webtubiaoku08" unicode="&#xe643;" horiz-adv-x="1099" 
d="M588 860q-26 12 -48 -6l-257 -215l-205 1q-19 0 -32 -13t-13 -31l-1 -423q0 -19 13 -32t32 -13h207l256 -214q13 -10 29 -10q10 0 19 4q26 12 26 41v870q0 29 -26 41v0v0v0zM762 636q-17 8 -34 1.5t-25.5 -23t-2.5 -33.5t23 -26q4 -2 8.5 -5t16.5 -14.5t21 -25.5
t16.5 -38t7.5 -52q0 -48 -16.5 -99.5t-31 -79t-17.5 -28.5q-17 -9 -22.5 -26.5t2.5 -33.5q12 -25 40 -25q11 0 20 4q2 2 13.5 15.5t29 40.5t33 60.5t27 79.5t11.5 92q0 44 -12.5 82.5t-28 61t-36 41t-29 23.5t-14.5 8v0v0v0zM901 767q-16 10 -34 6.5t-28 -19t-6 -34
t19 -28.5q6 -4 15 -11t29 -31.5t35.5 -53t28 -77t12.5 -103t-11.5 -109.5t-27.5 -94.5t-33.5 -71.5t-28.5 -48t-14 -18q-15 -10 -18.5 -28t6.5 -34q13 -20 37 -20q14 0 25 8q4 3 18.5 21t38.5 57t45 86t36.5 115t15.5 136.5t-16.5 130t-37 98.5t-47.5 67.5t-39 40.5t-20 14
v0v0v0z" />
    <glyph glyph-name="database" unicode="&#xe742;" 
d="M512 457q135 0 253 24.5t186 72.5v-97q0 -39 -59 -73t-160 -53.5t-220 -19.5t-220 19.5t-160 53.5t-59 73v97q68 -48 186 -72.5t253 -24.5zM512 18q135 0 253 24.5t186 72.5v-97q0 -39 -59 -73t-160 -53.5t-220 -19.5t-220 19.5t-160 53.5t-59 73v97q68 -48 186 -72.5
t253 -24.5zM512 238q135 0 253 24.5t186 72.5v-97q0 -40 -59 -73.5t-160 -53.5t-220 -20t-220 20t-160 53.5t-59 73.5v97q68 -48 186 -72.5t253 -24.5zM512 896q119 0 220 -19.5t160 -53.5t59 -73v-73q0 -40 -59 -73.5t-160 -53.5t-220 -20t-220 20t-160 53.5t-59 73.5v73
q0 39 59 73t160 53.5t220 19.5z" />
    <glyph glyph-name="chajian1" unicode="&#xe66c;" 
d="M749 648q-188 -9 -254 -12q-32 -2 -42.5 20t15.5 49q17 17 23 24t9.5 22t0.5 41q-4 40 -37.5 59t-75.5 18q-41 0 -76.5 -20.5t-47.5 -55.5q-19 -57 18 -84q1 -1 7 -5.5t8.5 -6.5t7 -6.5t5 -8t0.5 -9t-4.5 -11t-12.5 -11.5q-20 -17 -226 3q-1 -20 -2.5 -47.5t-3 -97.5
t2.5 -81q3 -23 24 -28t39 17q13 18 36.5 21t46 -6.5t40 -34t18.5 -58.5q2 -28 -8 -49t-26 -31t-34 -13.5t-33 2t-22 16.5q-17 29 -49 30.5t-35 -31.5q-4 -71 30 -299v0q15 -3 39 -8t77 -11.5t80 -2.5q22 4 28 31.5t-13 44.5q-7 7 -11.5 22t-1 33.5t13.5 34.5t35 25t61 5
q28 -2 46 -13t24 -25.5t6 -29.5t-5.5 -26.5t-13.5 -16.5q-12 -7 -15 -22.5t8 -30.5t34 -22q66 -17 274 26l3 1q-3 19 -7.5 48.5t-9.5 89.5t-1 84q3 20 16 28t27.5 4.5t26 -9.5t15.5 -11q20 -26 49 -33t55 4.5t44.5 42.5t18.5 74q0 80 -41 113t-83.5 24t-51.5 -33
q-6 -17 -18.5 -24.5t-24.5 -6.5t-22.5 7.5t-12.5 17.5q-4 19 -4.5 51t1.5 65.5t4.5 63.5t5 50t2.5 19z" />
    <glyph glyph-name="caidan" unicode="&#xe649;" 
d="M512 -25zM307 623q0 -14 -10 -24t-24 -10h-137q-14 0 -24 10t-10 24v137q0 14 10 24t24 10h137q14 0 24 -10t10 -24v-137zM614 623q0 -14 -10 -24t-24 -10h-137q-14 0 -24 10t-10 24v137q0 14 10 24t24 10h137q14 0 24 -10t10 -24v-137zM921 623q0 -14 -10 -24t-24 -10
h-137q-14 0 -24 10t-10 24v137q0 14 10 24t24 10h137q14 0 24 -10t10 -24v-137zM307 316q0 -14 -10 -24t-24 -10h-137q-14 0 -24 10t-10 24v137q0 14 10 24t24 10h137q14 0 24 -10t10 -24v-137zM614 316q0 -14 -10 -24t-24 -10h-137q-14 0 -24 10t-10 24v137q0 14 10 24
t24 10h137q14 0 24 -10t10 -24v-137zM921 316q0 -14 -10 -24t-24 -10h-137q-14 0 -24 10t-10 24v137q0 14 10 24t24 10h137q14 0 24 -10t10 -24v-137zM307 9q0 -14 -10 -24t-24 -10h-137q-14 0 -24 10t-10 24v137q0 14 10 24t24 10h137q14 0 24 -10t10 -24v-137zM614 9
q0 -14 -10 -24t-24 -10h-137q-14 0 -24 10t-10 24v137q0 14 10 24t24 10h137q14 0 24 -10t10 -24v-137zM921 9q0 -14 -10 -24t-24 -10h-137q-14 0 -24 10t-10 24v137q0 14 10 24t24 10h137q14 0 24 -10t10 -24v-137z" />
    <glyph glyph-name="wangluo" unicode="&#xe62b;" 
d="M928 128v316h-384v196h96v256h-256v-256h96v-196h-384v-316h-96v-256h256v256h-96v252h320v-252h-96v-256h256v256h-96v252h320v-252h-96v-256h256v256h-96z" />
    <glyph glyph-name="dayin" unicode="&#xe671;" 
d="M319 -60h382q26 0 44 19t18 46v190h-507v-190q0 -27 18.5 -46t44.5 -19zM701 831h-382q-27 0 -45 -18t-18 -45v-189h507v189q0 27 -18 45t-44 18zM827 579v-65h-635v65h-64q-26 0 -44.5 -19.5t-18.5 -45.5v-446q0 -26 18.5 -45t44.5 -19h64v255h635v-255h65q26 0 45 19
t19 45v446q0 26 -19 45.5t-45 19.5h-65zM827 385h-190v65h190v-65z" />
    <glyph glyph-name="xiantiao-hengxian" unicode="&#xe608;" horiz-adv-x="1755" 
d="M1337 862l-891 -891l-60 60l891 891z" />
    <glyph glyph-name="user" unicode="&#xe6af;" 
d="M740 205q84 -21 139 -90t55 -158v-29h-844v29q0 86 51 153t131 91q55 14 94.5 55t45.5 90q-65 45 -81 114l-36 158q-20 90 30.5 154t143.5 64h83q93 0 145 -64t33 -155l-33 -156q-15 -73 -84 -118q5 -47 40 -85t87 -53z" />
    <glyph glyph-name="kaishi" unicode="&#xe700;" 
d="M893 440q35 -25 35 -56t-35 -56l-669 -441q-35 -24 -59.5 -10t-24.5 56v902q0 42 24.5 56t59.5 -10z" />
    <glyph glyph-name="hebing" unicode="&#xe606;" horiz-adv-x="1025" 
d="M51 768h205l154 -256l-52 -102l-153 256h-154q-19 0 -35 16t-16 35t16 35t35 16zM1014 384l-195 -128q-11 -12 -25 -12t-26 12v102h-205l-205 -358h-307q-19 0 -35 16t-16 35t16 35t35 16h256l205 359h256v102q12 12 26 12t25 -12l195 -133q11 -11 11 -24.5t-11 -21.5z
" />
    <glyph glyph-name="liaotian" unicode="&#xe61b;" horiz-adv-x="1092" 
d="M388 390v-1q0 -26 -18 -44.5t-44 -18.5t-44 18.5t-18 44.5v0.5v1.5q0 25 18 43.5t44 18.5t44 -18.5t18 -44.5zM858 390v-1q0 -26 -18 -44.5t-44 -18.5q-25 0 -43 18.5t-18 44.5v1v1q0 25 18 43.5t43 18.5q26 0 44 -18.5t18 -44.5zM622 390v-1q0 -26 -18 -44.5t-43 -18.5
q-26 0 -44 18.5t-18 44.5v1v1q0 25 18 43.5t44 18.5q25 0 43 -18.5t18 -44.5zM546 -128q111 0 212.5 40.5t174.5 109t116 163.5t43 199t-43 199t-116 163.5t-174.5 109t-212.5 40.5t-212 -40.5t-174 -109t-116.5 -163.5t-43.5 -199q0 -157 93 -286l-50 -169q-7 -25 5 -38
t37 -8l210 46q49 -24 122 -40.5t128 -16.5h1z" />
    <glyph glyph-name="dingshi" unicode="&#xe633;" 
d="M512 777q-88 0 -168.5 -34.5t-138.5 -92.5t-93 -138.5t-35 -168.5t35 -168.5t93 -139t138.5 -93t168.5 -34.5t168.5 34.5t138.5 93t93 139t35 168.5t-35 168.5t-93 138.5t-138.5 92.5t-168.5 34.5zM695 160l-227 139v261h66v-226l195 -117zM894 654l-155 155l51 51
l154 -155zM77 705l155 155l51 -51l-155 -155z" />
    <glyph glyph-name="xiejiantou1" unicode="&#xe605;" 
d="M846 777l53 -53l-780 -788l-53 54zM958 503l-329 329h329v-329z" />
    <glyph glyph-name="peizhi" unicode="&#xe678;" 
d="M1021 242q3 -14 -1 -32q-3 -18 -10.5 -37.5t-18.5 -34.5t-24 -22q-13 -6 -23 -6t-22 4q-10 3 -27 6q-16 3 -33 1q-17 -1 -34 -6.5t-29 -18.5q-26 -28 -30.5 -62.5t9.5 -66.5q11 -22 -3 -44q-7 -8 -21 -18q-14 -9 -31 -17q-16 -7 -36 -12q-18 -4 -32 -4q-10 0 -19 8
q-8 7 -12 16h-1q-12 34 -41 58.5t-67 24.5q-37 0 -67 -24.5t-42 -57.5q-5 -13 -16 -19t-24 -6q-16 0 -35 6q-19 5 -38 13t-34 19t-23 22q-6 8 -6.5 18t8.5 29q12 25 9.5 57t-28.5 60q-15 16 -37 21q-21 5 -41 4q-23 -1 -47 -9q-15 -4 -31 2q-12 5 -22 20q-10 16 -19 35
q-8 19 -12 39.5t-2 33.5q3 24 22 30q32 14 58.5 44t26.5 67q0 38 -26.5 66.5t-58.5 41.5q-10 3 -16.5 15.5t-6.5 25.5q0 14 4 32q4 17 12 34q6 16 16 30q9 13 20 20q9 5 17 4t18 -4q33 -13 68.5 -8.5t62.5 31.5q13 13 19 32q6 20 8 37q1 19 0 34q-2 14 -3 22q-2 7 -3.5 15.5
t1.5 15.5q6 15 23 26.5t36.5 19t38.5 11.5q18 4 29 4q15 0 23 -9.5t11 -19.5q12 -29 39.5 -51.5t64.5 -22.5q38 0 67.5 21.5t41.5 53.5q4 9 13.5 18.5t19.5 9.5q15 0 33 -5q18 -4 35.5 -11.5t32.5 -19.5q14 -12 23 -26q6 -9 3 -20q-2 -10 -4 -14q-14 -32 -9 -67
q6 -35 32 -61t64.5 -29t70.5 13q9 5 21.5 4t21.5 -10q16 -15 28.5 -46t17.5 -63q2 -18 -6 -29q-9 -10 -17 -13q-34 -12 -58 -42t-24 -69q0 -37 20 -65q20 -27 53 -39q7 -4 13 -9q12 -10 16 -25zM514 144q49 0 92.5 18.5t76 51t51 75.5t18.5 92.5t-19 92.5q-18 43 -50 75
q-33 32 -76.5 50.5t-92.5 18.5t-92 -18.5t-75.5 -50.5t-51 -75t-18.5 -92t19 -93q18 -43 51 -75q32 -33 75 -52q43 -18 92 -18zM514 144z" />
    <glyph glyph-name="xiangmuzuhe" unicode="&#xe872;" 
d="M266 463l224 -110v258l-224 107v-255zM532 608v-255l222 107v256l-222 -108v0zM513 852l-219 -104l219 -104l215 104zM0 25l224 -110v258l-224 107v-255v0zM267 170v-255l221 107v256zM247 414l-218 -104l218 -104l216 104zM536 25l224 -110v258l-224 107v-255v0z
M802 170v-255l222 107v256zM783 414l-219 -104l219 -104l216 104l-216 104v0z" />
    <glyph glyph-name="xitongcanshupeizhi" unicode="&#xe68f;" horiz-adv-x="1723" 
d="M1185 272q-9 17 -29 15h-201q-8 0 -16 -4t-13 -13l-101 -174q-7 -12 -3 -25q1 -4 3 -7l97 -169q3 -10 11.5 -16.5t19.5 -6.5h201q21 -3 32 16l99 172q4 6 4 13q4 13 -3 24zM1128 -46h-145l-73 125l72 125h145l72 -125zM924 503q7 -21 30 -21h202h4q17 1 26 16l99 172
q3 5 4 11q4 14 -3 26l-100 173q-10 18 -30 16h-199q-9 0 -17 -5q-9 -4 -13 -13l-100 -173q-4 -7 -5 -15q0 -9 4 -18zM984 814h146l72 -124l-73 -125h-145l-72 124zM844 316v131q-34 0 -64 17q-45 26 -58.5 77t12.5 97l-113 65q-17 -30 -47 -47q-45 -26 -96 -12t-77 59
l-113 -65q17 -30 17 -64q0 -52 -37.5 -89t-89.5 -37v-131q34 0 63 -17q45 -26 59 -77t-13 -96l114 -66q17 30 46 46q45 27 96 13t77 -59l114 65q-17 30 -17 64q0 52 37 89t90 37zM646 303.5q-32 -55.5 -94.5 -72t-118.5 15.5t-72.5 94.5t15.5 118t94.5 72.5t118.5 -15.5
t72.5 -95t-15.5 -118z" />
    <glyph glyph-name="qukuai" unicode="&#xe663;" 
d="M128 766h768v-156h-768v156zM128 510h172v-508h-172v508zM383 510h513v-508h-513v508z" />
    <glyph glyph-name="fenzhi" unicode="&#xe60c;" horiz-adv-x="1820" 
d="M666 644h234v-101q11 -10 24 -10t24 10l180 119q10 7 10 19.5t-10 22.5l-180 123q-11 11 -24 11t-24 -11v-88h-282l-189 -332h-190v0h-48q-18 0 -32.5 -15t-14.5 -32.5t14.5 -32.5t32.5 -15h284v0h1zM948 217q-11 10 -24 10t-24 -10v-94h-140l-142 237l-47 -95
q132 -223 142 -237h187v-95q11 -11 24 -11t24 11l180 118q10 7 10 19.5t-10 23.5z" />
    <glyph glyph-name="icon-test" unicode="&#xe60d;" 
d="M545 -3v278h73v212h-73v352h-490v-69h422v-283h-69v-212h69v-346h490v68h-422z" />
    <glyph glyph-name="icon-test1" unicode="&#xe60e;" 
d="M618 394v69h-210v-69h-282v422h-71v-490h353v-73h210v73h280v-422h69v490h-349z" />
  </font>
</defs>
</svg>
